Skip to main content

Steve Kimock Live at Narrows Center for the Arts on 2016-03-19

Audio Preview

etree
Steve Kimock Live at Narrows Center for the Arts on 2016-03-19




Set 1

01. tuning
02. Acoustic Improv >Surely This Day
03. band intros/banter
04. Tongue N Groove
05. Careless Love
06. Orson
07. banter
08. Elephant In The Room
09. 5 B4 Funk

Set 2

01. tuning
02. Life Of The Party
03. banter
04. Bobby Vega solo
05. Sagen
06. Satellite City
07. Mothers Song
08. Fingernail Boogie
09. Beware Of Darkness
10. My Favorite Number
11. banter


Collection SteveKimock
Band/Artist Steve Kimock
Venue Narrows Center for the Arts
Location Fall River, MA

Source Schoeps mk22>kc5>cmc6>Sonosax SX-R4
Lineage WAV>USB>Macbook Pro>Wave Editor(tracking,fades,resample(izotope)/dither(mbit+)to 16 bit/44.1k)>XAct(FLAC 8,ffp,fix sbe)
Taped by Andy Murray
Transferred by Andy Murray

Notes

KIMOCK
2016-03-19
Narrows Center for the Arts
Fall River, MA

mics were NOS stage lip dfc

Schoeps mk22>kc5>cmc6>Sonosax SX-R4 (24bit/96khz)

WAV>USB>Macbook Pro>Wave Editor(tracking,fades,resample(izotope)/dither(mbit+)to 16 bit/44.1k)>XAct(FLAC 8,ffp,fix sbe)

Recorded and transferred by Andy Murray

Steve Kimock - Guitar
Bobby Vega - Bass
John Morgan Kimock - Drums
Leslie Mendelson - Keys, Vocals

http://www.kimock.com

length expanded size cdr WAVE problems fmt ratio filename
3:21.49 35571692 B --- -- ----- wav 1.0000 kimock2016-03-19.mk22.sxr4.1644.s1t01.wav
7:30.03 79387100 B --- -- ----- wav 1.0000 kimock2016-03-19.mk22.sxr4.1644.s1t02.wav
3:29.50 36985244 B --- -- ----- wav 1.0000 kimock2016-03-19.mk22.sxr4.1644.s1t03.wav
11:02.08 116795660 B --- -- ----- wav 1.0000 kimock2016-03-19.mk22.sxr4.1644.s1t04.wav
9:05.27 96201548 B --- -- ----- wav 1.0000 kimock2016-03-19.mk22.sxr4.1644.s1t05.wav
12:39.01 133889996 B --- -- ----- wav 1.0000 kimock2016-03-19.mk22.sxr4.1644.s1t06.wav
1:42.49 18108092 B --- -- ----- wav 1.0000 kimock2016-03-19.mk22.sxr4.1644.s1t07.wav
8:15.33 87395660 B --- -- ----- wav 1.0000 kimock2016-03-19.mk22.sxr4.1644.s1t08.wav
12:17.59 130145612 B --- -- ----- wav 1.0000 kimock2016-03-19.mk22.sxr4.1644.s1t09.wav
2:35.56 27473756 B --- -- ----- wav 1.0000 kimock2016-03-19.mk22.sxr4.1644.s2t01.wav
11:53.55 125902604 B --- -- ----- wav 1.0000 kimock2016-03-19.mk22.sxr4.1644.s2t02.wav
3:34.41 37846076 B --- -- ----- wav 1.0000 kimock2016-03-19.mk22.sxr4.1644.s2t03.wav
3:05.72 32803388 B --- -- ----- wav 1.0000 kimock2016-03-19.mk22.sxr4.1644.s2t04.wav
7:48.05 82567004 B --- -- ----- wav 1.0000 kimock2016-03-19.mk22.sxr4.1644.s2t05.wav
8:09.24 86316092 B --- -- ----- wav 1.0000 kimock2016-03-19.mk22.sxr4.1644.s2t06.wav
10:58.05 116083004 B --- -- ----- wav 1.0000 kimock2016-03-19.mk22.sxr4.1644.s2t07.wav
11:59.56 126963356 B --- -- ----- wav 1.0000 kimock2016-03-19.mk22.sxr4.1644.s2t08.wav
6:20.49 67147292 B --- -- ----- wav 1.0000 kimock2016-03-19.mk22.sxr4.1644.s2t09.wav
8:04.04 85387052 B --- -- ----- wav 1.0000 kimock2016-03-19.mk22.sxr4.1644.s2t10.wav
2:05.56 22181756 B --- -- ----- wav 1.0000 kimock2016-03-19.mk22.sxr4.1644.s2t11.wav
145:59.27 1545151984 B 1.0000 (20 files)

comment
Reviews

There are no reviews yet. Be the first one to write a review.
DOWNLOAD OPTIONS
In Collection
Steve Kimock
In Collection
Live Music Archive
Uploaded by
andyjah
on 3/20/2016
Views
3,390
Favorites
5
SIMILAR ITEMS (based on metadata)
Steve Kimock
by Steve Kimock
etree
eye 1,023
favorite 3
comment 3
favoritefavoritefavoritefavorite ( 3 reviews )
Source: Schoeps mk4v>nbob actives>Naiant PFA>Sonosax SX-R4
Steve Kimock
by Steve Kimock
etree
eye 235
favorite 0
comment 0
Source: Schoeps mk22>kc5>cmc6>Sonosax SX-R4
Steve Kimock
by Steve Kimock
etree
eye 306
favorite 0
comment 0
Source: Schoeps mk4v>nbob actives>Naiant PFA>Sonosax SX-R4
Steve Kimock
by Steve Kimock
etree
eye 194
favorite 0
comment 0
Source: @FOB/mics@~9' > MBHO603/ka200n/V3 + AKGck63/Nbob actives > Tascam DR680
Steve Kimock
by Steve Kimock
etree
eye 208
favorite 0
comment 0
Source: AKG CK-61 > Tascam DR-60D
Steve Kimock
by Steve Kimock
etree
eye 311
favorite 0
comment 1
favoritefavoritefavoritefavoritefavorite ( 1 reviews )
Source: AKG CK-61 > Tascam DR-60D
Steve Kimock
by Steve Kimock
etree
eye 434
favorite 1
comment 2
favoritefavoritefavoritefavorite ( 2 reviews )
Source: Neumann SKM-140> UA-5 T+ > Tascam DR2D
Steve Kimock
by Steve Kimock
etree
eye 697
favorite 1
comment 0
Source: Aud>Rode M5>Zoom H6
Steve Kimock
by Steve Kimock
etree
eye 1,991
favorite 3
comment 4
favoritefavoritefavoritefavoritefavorite ( 4 reviews )
Source: DPA 4023 > Lunatec V3 (digital) > Edirol R-44 (24/48)
Steve Kimock
etree
eye 628
favorite 1
comment 0
Source: {onstage/split} Neumann TLM 103 + {onstage/center XY) Neumann KM 184 + Vocal Feed > Soundcraft Spirit Mixer > Tascam DA 38